Cerca
 
 

Risultati secondo:
 


Rechercher Ricerca avanzata

Ultimi argomenti
» presentazione
Sab Set 13, 2014 5:58 pm Da scorpion56

» saluti di presentazione
Mar Giu 11, 2013 10:47 am Da pinuss

» Magix Video Deluxe MX Premium 18 [ITA][WU]
Ven Ago 10, 2012 1:00 pm Da roberto845

» Saluti da Roberto
Ven Ago 10, 2012 12:45 pm Da roberto845

» Eccomi qua
Mer Lug 18, 2012 7:01 pm Da kai.mano

» Ciao a tutti!!!
Gio Mag 31, 2012 8:57 pm Da warp

» AUTOCOM ATTREZZATURA DIAGNOSTICA
Gio Gen 12, 2012 8:16 pm Da ghost_89

» [ITA] Project Professional 2010 SP1 Volume License a 32/64 bit
Dom Nov 27, 2011 1:01 pm Da balubeto

» Un saluto a tutti
Dom Nov 27, 2011 12:55 pm Da balubeto

Navigazione
 Portale
 Forum
 Lista utenti
 Profilo
 FAQ
 Cerca
Partner
creare un forum

Segnali Dal Futuro (2009) Drammatico,Thriller,ITA/DVDRip/XviD/AC3,2CD [MU]

Vedere l'argomento precedente Vedere l'argomento seguente Andare in basso

Segnali Dal Futuro (2009) Drammatico,Thriller,ITA/DVDRip/XviD/AC3,2CD [MU]

Messaggio  Admin il Sab Gen 09, 2010 2:57 am


Titolo originale: Knowing
Nazione: U.S.A.
Anno: 2009
Genere: Drammatico, Thriller
Durata: 121'
Regia: Alex Proyas
Sito ufficiale: www.knowing-themovie.com

Cast: Nicolas Cage, Rose Byrne, Ben Mendelsohn, Lara Robinson, Chandler Canterbury, Adrienne Pickering, Terry Camilleri, Tamara Donnellan
Produzione: Escape Artists, Kaplan/Perrone Entertainment, Summit Entertainment
Distribuzione: Eagle Pictures
Data di uscita: 04 Settembre 2009 (cinema)

Trama:
Nel 1959, in occasione di una cerimonia per una nuova scuola elementare, gli insegnanti chiedono ad un gruppo di studenti di immaginare come sarà il futuro e di disegnarlo. Tutti i loro disegni saranno custoditi in una capsula del tempo, dove rimarranno per 50 anni. Una misteriosa ragazzina riempie il suo foglio con una serie apparentemente casuale di numeri, che, a quanto dice, le sarebbero stati sussurrati da persone invisibili. Mezzo secolo dopo, un gruppo di studenti è intento ad esaminare il contenuto della capsula. L'enigmatico messaggio scritto da quella ragazzina misteriosa finisce nelle mani del giovane Caleb Koestler (Chandler Canterbury). Il padre di Caleb, il professore di astrofisica John Koestler (Nicolas Cage), scopre che la serie di numeri contenuta nel messaggio predice con estrema precisione le date e il numero delle vittime di ognuno dei più grandi disastri verificatisi negli ultimi 50 anni. Mentre è impegnato a tentare di decodificare i segreti nascosti nel documento, John scopre anche che il messaggio predice altre tre catastrofi imminenti. L'ultima di queste predizioni alluderebbe ad un cataclisma di proporzioni globali. John cerca di mettere in guardia le autorità ma i suoi avvertimenti vengono completamente ignorati. C'è di più, John, inizia pian piano a realizzare che Caleb sarebbe, in qualche modo, collegato a tutti questi eventi misteriosi. Con l'aiuto di Diana Wayland (Rose Byrne) e Abby Wayland (Lara Robinson), rispettivamente la figlia e la nipote della ragazzina autrice del profetico messaggio, John si lancia in una folle corsa contro il tempo per tentare di prevenire l'imminente catastrofe.

NFO:
General
Complete name : Dvdrip/Segnali.Dal.Futuro.2009.iTALiAN.DVDRip.XviD-Republic
Format : AVI
Format/Info : Audio Video Interleave
File size : 701 MiB
Duration : 1h 0mn
Overall bit rate : 1 617 Kbps
Writing application : VirtualDubMod 1.5.10.2 (build 2540/release)
Writing library : VirtualDubMod build 2540/release

Video
ID : 0
Format : MPEG-4 Visual
Format profile : AdvancedSimple@L5
Format settings, BVOP : Yes
Format settings, QPel : No
Format settings, GMC : No warppoints
Format settings, Matrix : Default (MPEG)
Codec ID : XVID
Codec ID/Hint : XviD
Duration : 1h 0mn
Bit rate : 1 160 Kbps
Width : 640 pixels
Height : 272 pixels
Display aspect ratio : 2.35:1
Frame rate : 25.000 fps
Resolution : 24 bits
Colorimetry : 4:2:0
Scan type : Progressive
Bits/(Pixel*Frame) : 0.266
Stream size : 503 MiB (72%)
Writing library : XviD 1.2.1 (UTC 2008-12-04)

Audio
ID : 1
Format : AC-3
Format/Info : Audio Coding 3
Codec ID : 2000
Duration : 1h 0mn
Bit rate mode : Constant
Bit rate : 448 Kbps
Channel(s) : 6 channels
Channel positions : Front: L C R, Surround: L R, LFE
Sampling rate : 48.0 KHz
Video delay : 8ms
Stream size : 194 MiB (28%)
Alignment : Split accross interleaves
Interleave, duration : 40 ms (1.00 video frame)
Interleave, preload duration : 500 ms

DOWNLOAD
Spoiler:
http://www.megaupload.com/?d=BAROTO1B
http://www.megaupload.com/?d=L9ZQCZSF
http://www.megaupload.com/?d=TRH81SZ4
http://www.megaupload.com/?d=R1VQZ4YJ
http://www.megaupload.com/?d=RAQHKTKZ
http://www.megaupload.com/?d=OR053DX2
http://www.megaupload.com/?d=CQLSD1RH
http://www.megaupload.com/?d=BP6PTJZ7
http://www.megaupload.com/?d=7YTKP8L8
http://www.megaupload.com/?d=Z39X9HNB
http://www.megaupload.com/?d=R6VYLESJ
http://www.megaupload.com/?d=M8L5JLU1
http://www.megaupload.com/?d=X7EM262B
http://www.megaupload.com/?d=WGKHOZFV
http://www.megaupload.com/?d=7YTKP8L8
http://www.megaupload.com/?d=XPZJXQM4
Password

superx78

Admin
Admin

Messaggi : 373
Punti : 1132
Reputazione : 4
Data d'iscrizione : 08.01.10
Età : 37

Vedere il profilo dell'utente http://best-italy-warez.forumattivo.com

Tornare in alto Andare in basso

Vedere l'argomento precedente Vedere l'argomento seguente Tornare in alto


 
Permesso di questo forum:
Non puoi rispondere agli argomenti in questo forum